<svg xmlns="http://www.w3.org/2000/svg">
<defs>
<font
       id="FontID0"
       horiz-adv-x="741"
       font-variant="normal"
       font-weight="900"
       horiz-origin-x="0"
       horiz-origin-y="0"
       vert-origin-x="45"
       vert-origin-y="90"
       vert-adv-y="90"
       style="font-variant:normal;font-weight:900"><font-face
         font-family="Overpass Heavy"
         id="font-face7" /><missing-glyph
         id="missing-glyph9"><path
           d="M0 0z"
           id="path11" /></missing-glyph><glyph
         unicode="k"
         horiz-adv-x="577"
         id="glyph13"><path
           d="M556 0l-185 359 157 152.001 -177.002 0 -125.999 -125 0 335.999 -150.001 -70.0001 0 -652 150.001 0 0 221 33.9999 31.0014 134 -252.001 163.001 0z"
           id="path15" /></glyph><glyph
         unicode="y"
         horiz-adv-x="594"
         id="glyph17"><path
           d="M140.999 -193.999l156.002 0 272 705 -155 0 -99.9996 -266.003c-4.00042,-11.9977 -12.0012,-31.9997 -16.0017,-47.9978 -4.00042,15.9981 -10.9994,36.0002 -15.9981,47.9978l-101.002 266.003 -155.998 0 193 -505.001 -77.0026 -199.999z"
           id="path19" /></glyph><glyph
         unicode="e"
         horiz-adv-x="569"
         id="glyph21"><path
           d="M293.998 -12.0012c89.0003,0 154.002,37.0021 202.003,95.0009l-86.0018 86.0018c-32.9981,-39.0023 -63.9995,-54.002 -116.001,-54.002 -51.9982,0 -93.999,23.0006 -97.9994,90.0022l325 0c5.00232,26.9974 4.00042,56.997 4.00042,75.9971 0,164.003 -100.998,242 -231.001,242 -149.998,0 -243.997,-104 -243.997,-266.997 0,-168.003 91.9988,-268.003 243.997,-268.003zm-95.9992 329c7.00252,48.9997 40.0006,79.0028 89.0003,79.0028 61.001,0 88.002,-30.0031 95.0009,-79.0028l-184.001 0z"
           id="path23" /></glyph><glyph
         unicode="b"
         horiz-adv-x="586"
         id="glyph25"><path
           d="M316.001 -12.0012c134,0 221,95.0009 221,268.003 0,162.997 -93.0007,266.997 -212.001,266.997 -48.0014,0 -80.0011,-19.9985 -99.9996,-48.9997l0 248.001 -150.001 -66.998 0 -655.002 150.001 0 0 38.9987c21.0004,-38.0004 48.9997,-50.9999 91.0005,-50.9999zm-17 145.003c-40.0006,0 -57.9989,8.99914 -74.0005,28.9976l0 186.001c12.0012,14.9998 34.9983,29.9995 74.0005,29.9995 55.9986,0 87.9984,-42.9991 87.9984,-121.998 0,-76.0007 -29.9995,-123 -87.9984,-123z"
           id="path27" /></glyph><glyph
         unicode="H"
         horiz-adv-x="734"
         id="glyph29"><path
           d="M503.999 0l159 0 0 700.001 -159 0 0 -265.001 -272.998 0 0 265.001 -158.002 0 0 -700.001 158.002 0 0 284.001 272.998 0 0 -284.001z"
           id="path31" /></glyph><glyph
         unicode="a"
         horiz-adv-x="577"
         id="glyph33"><path
           d="M363.998 0l149.003 0 0 322.001c0,176.999 -124.002,200.998 -220.001,200.998 -91.0005,0 -168,-28.9976 -222.002,-64.9978l46.0012 -114.999c55.9986,36.9985 110.001,54.9968 167.001,54.9968 46.9995,0 79.9976,-22.997 79.9976,-67.9999l0 -27.9993c-28.9976,12.9996 -59.9991,17 -110.999,17 -100.998,0 -208,-51.9982 -208,-163.001 0,-111.997 84.9999,-168 193,-168 65.9997,0 101.002,22.0023 125.999,48.9997l0 -36.9985zm-96.9975 112.999c-48.0014,0 -75.0024,16.0017 -75.0024,41.0025 0,34.9983 39.0023,45.9976 87.0001,45.9976 31.0014,0 58.0024,-2.99852 84.9999,-10.9994l0 -42.0008c-23.9989,-17 -53.9984,-33.9999 -96.9975,-33.9999z"
           id="path35" /></glyph><glyph
         unicode="r"
         horiz-adv-x="447"
         id="glyph37"><path
           d="M74.9988 0l150.001 0 0 284.001c0,74.9988 31.0014,91.9988 76.0007,91.9988 42.0008,0 74.0005,-14.0015 102,-33.9999l19.9985 136c-33.9999,27.001 -67.9999,44.9993 -117.998,44.9993 -50.9999,0 -72.0003,-26.9974 -80.0011,-43.9974l0 31.9997 -150.001 0 0 -511.001z"
           id="path39" /></glyph><glyph
         unicode="i"
         horiz-adv-x="301"
         id="glyph41"><path
           d="M151 556c48.9997,0 86.0018,38.9987 86.0018,85.9982 0,47.0031 -37.0021,84.0016 -86.0018,84.0016 -46.9995,0 -85.9982,-36.9985 -85.9982,-84.0016 0,-46.9995 38.9987,-85.9982 85.9982,-85.9982zm-74.9988 -556l149.998 0 0 511.001 -149.998 0 0 -511.001z"
           id="path43" /></glyph></font><style
       type="text/css"
       id="style45"><![CDATA[
    @font-face { font-family:"Overpass Heavy";src:url("#FontID0") format(svg)}
    .fil0 {fill:#606062}
    .fil1 {fill:#FF6F00}
    .fnt0 {font-weight:900;font-size:2784.71px;font-family:'Overpass Heavy'}
   ]]></style><font
       font-weight="400,700"
       font-style="normal"
       style="fill-rule:nonzero"
       font-variant="normal"
       horiz-adv-x="713"
       id="FontID0-4"><font-face
         id="font-face7-2"
         font-family="Overpass" /><missing-glyph
         id="missing-glyph9-2"><path
           id="path11-5"
           d="M0 0z" /></missing-glyph><glyph
         id="glyph13-1"
         horiz-adv-x="499"
         unicode="c"><path
           id="path15-8"
           d="M264.999 -11.9992c94.0022,0 162.001,46.9988 187.002,130.998l-81.0004 27.0017c-15.0024,-48.0014 -53.0007,-76.0011 -104.001,-76.0011 -81.9984,0 -125.001,69.0012 -125.001,185.001 0,114.997 41.0015,186.997 127.999,186.997 50.0021,0 81.0004,-28.9977 96.0029,-67.9986l81.9984 30.0003c-28.9977,80.0024 -93.9976,118.999 -178.999,118.999 -134.001,0 -216,-99.9995 -216,-267.998 0,-169.001 81.9984,-267 211.998,-267z" /></glyph><glyph
         id="glyph17-0"
         horiz-adv-x="630"
         unicode="&gt;"><path
           id="path19-0"
           d="M550 295.001l0 97.001 -469.999 190.999 0 -120.003 301.998 -119.999 -301.998 -118.999 0 -121.002 469.999 192.003z" /></glyph><glyph
         id="glyph21-1"
         horiz-adv-x="538"
         unicode="e"><path
           id="path23-8"
           d="M280.001 -11.9992c68.9966,0 126.997,27.9997 164.999,65.998l-53.0007 59.0026c-32.001,-32.001 -71.0018,-46.0008 -109.998,-46.0008 -77.0037,0 -133.003,60.9987 -140.003,155.001l345.999 0c2.00063,19.9972 3.00324,41.9995 3.00324,58 0,167.998 -96.0029,242.997 -211,242.997 -136.002,0 -227.001,-97.9989 -227.001,-267 0,-155.999 86.9977,-267.998 227.001,-267.998zm-139 308.001c4.99929,104.999 64.9999,149.997 139,149.997 53.9987,0 121.997,-33.997 123,-149.997l-262 0z" /></glyph><glyph
         id="glyph25-8"
         horiz-adv-x="526"
         unicode="a"><path
           id="path27-4"
           d="M376 0l81.9984 0 0 339c0,157.002 -102,183.999 -181.998,183.999 -76.9991,0 -144,-26.9971 -185.001,-53.9987l25.001 -72.9979c37.9983,26.9971 92.0016,51.0001 148.999,51.0001 66.0025,0 111.001,-25.001 111.001,-115.002l0 -35.9976c-41.9995,23.9984 -86.9977,32.999 -132,32.999 -99.0015,0 -190.999,-51.0001 -190.999,-169.001 0,-113.999 74.0005,-171.999 178.001,-171.999 60.9987,0 110.996,26.9971 144.998,58.998l0 -46.9988zm-132 64.9999c-69.9992,0 -109,37.9983 -109,95.0003 0,64.9999 55.0014,93.9976 120.999,93.9976 41.9995,0 89.0029,-14.9979 120.001,-33.997l0 -88.0003c-28.9977,-34.0016 -74.9985,-67.0006 -132,-67.0006z" /></glyph><glyph
         id="glyph29-1"
         horiz-adv-x="394"
         unicode="r"><path
           id="path31-3"
           d="M83.001 0l86.9977 0 0 287.999c0,116 68.0032,148.999 113.999,148.999 34.9996,0 57.002,-10.9966 73.0025,-21.9978l12.9972 81.9984c-18.9991,17.0031 -45.9962,25.9991 -74.9985,25.9991 -48.9995,0 -95.0003,-24.9965 -125.001,-78.9998l0 67.0006 -86.9977 0 0 -510.999z" /></glyph><glyph
         id="glyph33-7"
         horiz-adv-x="253"
         unicode="i"><path
           id="path35-1"
           d="M127.001 603.999c30.9983,0 54.9968,24.003 54.9968,54.0033 0,30.9983 -23.9984,55.9994 -54.9968,55.9994 -30.0003,0 -54.0033,-25.001 -54.0033,-55.9994 0,-30.0003 24.003,-54.0033 54.0033,-54.0033zm-43.0021 -603.999l87.0023 0 0 510.999 -87.0023 0 0 -510.999z" /></glyph></font><style
       id="style37"
       type="text/css"><![CDATA[
    @font-face { font-family:"Overpass";src:url("#FontID0") format(svg)}
    .fil5 {fill:#FEFEFE}
    .fil0 {fill:#606062}
    .fil1 {fill:#B71C1C}
    .fil4 {fill:#FEFEFE;fill-rule:nonzero}
    .fil2 {fill:#606062;fill-rule:nonzero}
    .fil3 {fill:#B71C1C;fill-rule:nonzero}
    .fnt1 {font-weight:normal;font-size:2184.31px;font-family:'Overpass'}
    .fnt0 {font-weight:bold;font-size:2341.11px;font-family:'Overpass'}
   ]]></style><font
       font-weight="400,700"
       font-style="normal"
       style="fill-rule:nonzero"
       font-variant="normal"
       horiz-adv-x="714"
       id="FontID0-8"><font-face
         id="font-face7-8"
         font-family="Overpass" /><missing-glyph
         id="missing-glyph9-1"><path
           id="path11-7"
           d="M0 0z" /></missing-glyph><glyph
         id="glyph13-0"
         horiz-adv-x="500"
         unicode="c"><path
           id="path15-5"
           d="M264.999 -12.0021c93.9985,0 162,47.0036 187.001,131.001l-81.0002 27.0015c-14.9994,-47.9998 -52.9982,-76.0018 -104,-76.0018 -82.0007,0 -125.002,69.0024 -125.002,185 0,115.001 41.0004,187.001 128.004,187.001 49.9965,0 80.9959,-28.9983 95.9996,-67.9976l81.9964 29.9988c-28.9983,79.9997 -93.9985,118.999 -178.997,118.999 -134.003,0 -216.003,-99.9974 -216.003,-268.001 0,-169 82.0007,-267 212.001,-267z" /></glyph><glyph
         id="glyph17-2"
         horiz-adv-x="629"
         unicode="&gt;"><path
           id="path19-3"
           d="M550.002 295.001l0 96.9978 -470.001 191.002 0 -120.002 301.999 -119.998 -301.999 -119 0 -121 470.001 192z" /></glyph><glyph
         id="glyph21-14"
         horiz-adv-x="537"
         unicode="e"><path
           id="path23-6"
           d="M279.999 -12.0021c69.0024,0 127.003,28.002 165.002,66.0008l-53.0025 59.0014c-31.9999,-31.9999 -70.9992,-45.9987 -109.998,-45.9987 -76.9981,0 -132.998,60.9981 -140.002,154.997l346 0c2.00107,20.0021 3.0016,42.0009 3.0016,58.0008 0,167.999 -95.9996,243.001 -211.001,243.001 -135.999,0 -227.001,-98.0007 -227.001,-267 0,-155.997 87.0034,-268.001 227.001,-268.001zm-138.997 308.001c4.99836,105 64.9959,150.003 138.997,150.003 54.003,0 122.001,-34.0009 123.001,-150.003l-261.998 0z" /></glyph><glyph
         id="glyph25-7"
         horiz-adv-x="526"
         unicode="a"><path
           id="path27-5"
           d="M375.998 0l82.0007 0 0 339c0,156.998 -101.998,183.999 -181.998,183.999 -77.0024,0 -143.999,-27.0015 -185,-53.9987l25.0004 -73.0002c37.9988,27.0015 91.9974,51.0014 148.998,51.0014 66.0008,0 110.999,-25.0004 110.999,-115.001l0 -36.002c-41.9966,23.9999 -86.9991,33.0004 -131.997,33.0004 -99.0012,0 -191.003,-50.9971 -191.003,-169 0,-114.001 74.0008,-172.001 178,-172.001 61.0024,0 111.003,27.0015 145,59.0014l0 -46.9993zm-131.997 65.0003c-70.0029,0 -109.002,37.9988 -109.002,94.9991 0,65.0003 54.9992,94.0028 121,94.0028 42.0009,0 89.0002,-15.0037 119.999,-34.0009l0 -87.9996c-28.9983,-34.0009 -74.997,-67.0013 -131.997,-67.0013z" /></glyph><glyph
         id="glyph29-15"
         horiz-adv-x="394"
         unicode="r"><path
           id="path31-5"
           d="M83.0013 0l86.9991 0 0 287.999c0,116.002 67.9976,149.002 114.001,149.002 34.9972,0 57.0003,-11.0016 73.0002,-21.9988l12.9983 81.9964c-19.0015,17.0005 -45.9987,26.001 -75.0013,26.001 -49.0003,0 -94.9991,-25.0004 -124.998,-78.9991l0 67.0013 -86.9991 0 0 -511.002z" /></glyph><glyph
         id="glyph33-0"
         horiz-adv-x="254"
         unicode="i"><path
           id="path35-0"
           d="M126.999 604c30.9993,0 54.9992,23.9999 54.9992,53.9987 0,31.0036 -23.9999,55.9998 -54.9992,55.9998 -29.9988,0 -53.9987,-24.9961 -53.9987,-55.9998 0,-29.9988 23.9999,-53.9987 53.9987,-53.9987zm-42.9971 -604l86.9991 0 0 511.002 -86.9991 0 0 -511.002z" /></glyph></font>
</defs>
</svg>
